NHL 18/19, SC, WC: Final, Game 4. San Jose Sharks - St. Louis Blues [17.05.2019, Хоккей, HDTVRip/720p/50fps, MKV/H.264, RU/INT, Eurosport]

Страницы:  1
Ответить
Автор
Сообщение

Настольный Теннисист

Стаж: 1 год 11 месяцев

Сообщений: 1481


Настольный Теннисист · 18-Май-19 10:20 (3 месяца 5 дней назад, ред. 19-Май-19 11:10)

NHL Stanley Cup Playoffs 2019
WC: Final, Game 4
San Jose Sharks - St. Louis Blues
Год выпуска: 17.05.2019
Вид спорта: Хоккей
Комментарий: Профессиональный
Язык комментариев: Русский (Саприн, Дегтярев) / Интершум
Описание: NHL 18/19, SC, WC: Final, Game 4. San Jose Sharks - St. Louis Blues.
Автор рипа: Настольный Теннисист
Качество: HDTVRip
Формат: MKV
Видео кодек: H.264
Аудио кодек: AC3
Видео: MPEG4 Video (H264) 1280x720 (16:9) 50fps 3600kbps
Аудио: Dolby AC3 48000Hz stereo 192kbps
Скриншоты
Продолжительность
01:49:04
Счет
Счет
San Jose Sharks - St. Louis Blues
1 - 2
MediaInfo
General
Unique ID : 272698180599737463575442974631051177449 (0xCD27C25999BB00BF429BF30F6E4CADE9)
Complete name : Y:\торрент\NHL 18-19, SC, WC Final, Game 4. San Jose Sharks - St. Louis Blues 50fps Rutracker.org.mkv
Format : Matroska
Format version : Version 2
File size : 3.06 GiB
Duration : 1 h 49 min
Overall bit rate : 4 013 kb/s
Writing application : Lavf54.63.104
Writing library : Lavf54.63.104
Video
ID : 1
Format : AVC
Format/Info : Advanced Video Codec
Format profile : [email protected]
Format settings : CABAC / 4 Ref Frames
Format settings, CABAC : Yes
Format settings, RefFrames : 4 frames
Codec ID : V_MPEG4/ISO/AVC
Duration : 1 h 49 min
Bit rate : 3 549 kb/s
Width : 1 280 pixels
Height : 720 pixels
Display aspect ratio : 16:9
Frame rate mode : Constant
Frame rate : 50.000 FPS
Color space : YUV
Chroma subsampling : 4:2:0
Bit depth : 8 bits
Scan type : Progressive
Bits/(Pixel*Frame) : 0.077
Stream size : 2.70 GiB (88%)
Default : No
Forced : No
Audio #1
ID : 2
Format : AC-3
Format/Info : Audio Coding 3
Commercial name : Dolby Digital
Codec ID : A_AC3
Duration : 1 h 49 min
Bit rate mode : Constant
Bit rate : 192 kb/s
Channel(s) : 2 channels
Channel layout : L R
Sampling rate : 48.0 kHz
Frame rate : 31.250 FPS (1536 SPF)
Bit depth : 16 bits
Compression mode : Lossy
Stream size : 150 MiB (5%)
Language : Russian
Service kind : Complete Main
Default : Yes
Forced : No
Audio #2
ID : 3
Format : AC-3
Format/Info : Audio Coding 3
Commercial name : Dolby Digital
Codec ID : A_AC3
Duration : 1 h 49 min
Bit rate mode : Constant
Bit rate : 192 kb/s
Channel(s) : 2 channels
Channel layout : L R
Sampling rate : 48.0 kHz
Frame rate : 31.250 FPS (1536 SPF)
Bit depth : 16 bits
Compression mode : Lossy
Stream size : 150 MiB (5%)
Language : English
Service kind : Complete Main
Default : No
Forced : No
Download
Сайт не распространяет и не хранит электронные версии произведений, а лишь предоставляет доступ к создаваемому пользователями каталогу ссылок на торрент-файлы, которые содержат только списки хеш-сумм
Как скачивать? (для скачивания .torrent файлов необходима регистрация)
[Профиль]  [ЛС] 

xyourenemyx

Стаж: 7 лет 6 месяцев

Сообщений: 24


xyourenemyx · 18-Май-19 12:50 (спустя 2 часа 29 мин.)

да есть же!
спасибо добрый человек.
[Профиль]  [ЛС] 

meh1981

Стаж: 8 лет 11 месяцев

Сообщений: 495

meh1981 · 18-Май-19 22:50 (спустя 9 часов)

спасибо, 1080i будет?
[Профиль]  [ЛС] 

apocALEKS

Стаж: 7 лет 5 месяцев

Сообщений: 200

apocALEKS · 19-Май-19 06:25 (спустя 7 часов)

антагонистам Мосалёва - за него Дегтярёв...
[Профиль]  [ЛС] 

Настольный Теннисист

Стаж: 1 год 11 месяцев

Сообщений: 1481


Настольный Теннисист · 19-Май-19 11:11 (спустя 4 часа, ред. 19-Май-19 11:11)

meh1981
уже удалил исходник
apocALEKS
шо то, шо это
скрытый текст
поправил
[Профиль]  [ЛС] 

Alex290469

Стаж: 3 года 7 месяцев

Сообщений: 101

Alex290469 · 19-Май-19 22:58 (спустя 11 часов)

скрытый текст
Запад круче, чем восток.
Определился, за кого буду болеть.
Одни - скучные. Другие покупают судей, оптом и в розницу. Остаются эти. Из городка с большой аркой, тремя аэропортами, метро и населением в 300 000 человек)
[Профиль]  [ЛС] 
 
Ответить
Loading...
Error