Седьмой хранитель / O Sétimo Guardião / Серии: 1-80 из 161 (Рожериу Гомес) [2018, Бразилия, Драма, Мелодрама, Фэнтези, HDTV 1080] MVO (AVEBRASIL.TV)

Страницы:  1

Ответить
Автор
Сообщение

denzel1989

Стаж: 7 лет 3 месяца

Сообщений: 1537

denzel1989 · 29-Ноя-18 21:52 (6 месяцев назад, ред. 19-Май-19 17:36)

Седьмой хранитель / O Sétimo Guardião
Год выпуска: 2018
Страна: Бразилия
Производство: Rede Globo de Televisão
Жанр: драма, мелодрама, фэнтези
Серии (количество): 161
Продолжительность: 01:18:11 (1-ая серия)
Перевод: любительский двухголосый закадровый AveBrasil
Субтитры: Отсутствуют
Режиссёр: Рожериу Гомес
В ролях: Марина Руй Барбоза, Бруну Галиассу, Лилия Кабрал, Тони Рамос, Флавия Алессандра, Марселлу Новаес, Маркос Карузо, Паоло Роча, Антониу Калони, Жозе Лорету
Описание: Серра-Азул – самый обыкновенный тихий и окруженный горами провинциальный городок, до которого еще не добрались многие технологические достижения, включая интернет и мобильный телефон. Но он скрывает немало собственных тайн, главная из которых – это уникальный источник, обладающий целебными и омолаживающими свойствами. Охранять чудо природы от плохих намерений поручено семерым стражам, среди которых есть мэр, доктор, эзотерик и другие жители города. Именно вокруг этих людей и будет сосредоточен сюжет, показывая их взаимоотношения и попытки защитить источник
Доп. информация: Переведено и озвучено специально для онлайн - кинотеатра HDrezka.
Качество: HDTV 1080
Формат: MP4
Видео кодек: AVC
Аудио кодек: AAC
Видео: 1920x1080 (16:9) | MPEG-4 | 8919 /s | 23.976 fps
Аудио: 48 kHz, AAC, 2 ch, 317 Кбит/с
Реклама:
Перед серией, звуковая.
MI
Полное имя : C:\Users\Ave Serii\Desktop\AveBrasil\Седьмой хранитель\O.Setimo.Guardiao.001.mp4
Формат : MPEG-4
Профиль формата : Base Media / Version 2
Идентификатор кодека : mp42 (mp42/mp41)
Размер файла : 4,87 Гбайт
Продолжительность : 1 ч. 18 м.
Режим общего битрейта : Переменный
Общий поток : 8919 Кбит/сек
Дата кодирования : UTC 2018-11-27 08:43:56
Дата пометки : UTC 2018-11-27 08:45:27
TIM : 00:00:00:00
TSC : 24000
TSZ : 1001
Видео
Идентификатор : 1
Формат : AVC
Формат/Информация : Advanced Video Codec
Профиль формата : [email protected]
Настройки формата : CABAC / 4 Ref Frames
Параметр CABAC формата : Да
Параметр RefFrames формата : 4 кадра
Идентификатор кодека : avc1
Идентификатор кодека/Информация : Advanced Video Coding
Продолжительность : 1 ч. 18 м.
Битрейт : 8598 Кбит/сек
Ширина : 1920 пикселей
Высота : 1080 пикселей
Соотношение сторон : 16:9
Режим частоты кадров : Постоянный
Частота кадров : 23,976 (24000/1001) кадра/сек
Стандарт вещания : NTSC
Цветовое пространство : YUV
Субдискретизация насыщенности : 4:2:0
Битовая глубина : 8 бит
Тип развёртки : Прогрессивная
Бит/(Пиксели*Кадры) : 0.173
Размер потока : 4,70 Гбайт (96%)
Язык : English
Дата кодирования : UTC 2018-11-27 08:43:56
Дата пометки : UTC 2018-11-27 08:43:56
Цветовой диапазон : Limited
Основные цвета : BT.709
Характеристики трансфера : BT.709
Коэффициенты матрицы : BT.709
Codec configuration box : avcC
Аудио
Идентификатор : 2
Формат : AAC LC
Формат/Информация : Advanced Audio Codec Low Complexity
Идентификатор кодека : mp4a-40-2
Продолжительность : 1 ч. 18 м.
Продолжительность оригинала : 1 ч. 18 м.
Вид битрейта : Переменный
Битрейт : 317 Кбит/сек
Максимальный битрейт : 417 Кбит/сек
Каналы : 2 канала
Channel layout : L R
Частота : 48,0 КГц
Частота кадров : 46,875 кадров/сек (1024 SPF)
Метод сжатия : С потерями
Размер потока : 178 Мбайт (4%)
Размер потока оригинала : 178 Мбайт (4%)
Язык : English
Дата кодирования : UTC 2018-11-27 08:43:56
Дата пометки : UTC 2018-11-27 08:43:56
Скриншоты
Предыдущие и альтернативные раздачи
Download
Для скачивания .torrent файлов необходима регистрация
Сайт не распространяет и не хранит электронные версии произведений, а лишь предоставляет доступ к создаваемому пользователями каталогу ссылок на торрент-файлы, которые содержат только списки хеш-сумм
[Профиль]  [ЛС] 

Сударыня

Moderator

Стаж: 12 лет 1 месяц

Сообщений: 11528

Сударыня · 29-Ноя-18 23:09 (спустя 1 час 17 мин.)

denzel1989 писал(а):
76408712Реклама:
Перед серией, звуковая.
А что в рекламе говорят? Ответить можно в личку.
Может ничего серьёзного?, а то жалко Т ставить.
[Профиль]  [ЛС] 

denzel1989

Стаж: 7 лет 3 месяца

Сообщений: 1537

denzel1989 · 30-Ноя-18 00:38 (спустя 1 час 28 мин.)

Сударыня писал(а):
76409197
denzel1989 писал(а):
76408712Реклама:
Перед серией, звуковая.
А что в рекламе говорят? Ответить можно в личку.
Может ничего серьёзного?, а то жалко Т ставить.
Переведено и озвучено группой ***. Специально для онлайн кинотеатра *** точка аг
[Профиль]  [ЛС] 

Сударыня

Moderator

Стаж: 12 лет 1 месяц

Сообщений: 11528

Сударыня · 30-Ноя-18 00:38 (спустя 26 сек.)

denzel1989 писал(а):
76409416Переведено и озвучено группой ***. Специально для онлайн кинотеатра ***
Благодарю
[Профиль]  [ЛС] 

Aoaj

Стаж: 8 лет 5 месяцев

Сообщений: 865


Aoaj · 16-Дек-18 15:41 (спустя 16 дней, ред. 16-Дек-18 15:41)

Очень примитивно все в этом сериале. Да что там говорить, когда сами бразильцы не в восторге! Скатилась браза ниже плинтуса(( А как все хорошо начиналось в 2012 г...
[Профиль]  [ЛС] 

Anna55anna

Стаж: 9 лет 3 месяца

Сообщений: 4


Anna55anna · 03-Янв-19 12:25 (спустя 17 дней)

Спасибо за сериал, но почему-то не качает совсем, да и поблагодаривших всего четверо со мной вместе... Кому-то удалось скачать? Неужели совсем плох сериал, никто его не хочет?
[Профиль]  [ЛС] 

alfonsodiaz

Стаж: 10 лет 3 месяца

Сообщений: 1774


alfonsodiaz · 07-Янв-19 03:47 (спустя 3 дня)

По описанию какой-то отборный бред.
[Профиль]  [ЛС] 

Aoaj

Стаж: 8 лет 5 месяцев

Сообщений: 865


Aoaj · 08-Янв-19 22:16 (спустя 1 день 18 часов)

alfonsodiaz писал(а):
76627540По описанию какой-то отборный бред.
Такой бред только Агиналду Силва мог снять! Какой-то магический реализм приплетает вечно в свои сериалы. Для кого это вообще? Бразильцы сами плюются от сериала!
[Профиль]  [ЛС] 

denzel1989

Стаж: 7 лет 3 месяца

Сообщений: 1537

denzel1989 · 11-Апр-19 11:42 (спустя 3 месяца 2 дня)

+63
[Профиль]  [ЛС] 

denzel1989

Стаж: 7 лет 3 месяца

Сообщений: 1537

denzel1989 · 19-Май-19 17:37 (спустя 1 месяц 8 дней)

+ 80
[Профиль]  [ЛС] 

aeg-91

Стаж: 9 лет 4 месяца

Сообщений: 945

aeg-91 · 23-Май-19 16:09 (спустя 3 дня)

СПАСИБО!!!!!!!!!!!!!! Мне очень нравится сериал,Денис ,а почему не выкладываешь Парализополис здесь?
[Профиль]  [ЛС] 

denzel1989

Стаж: 7 лет 3 месяца

Сообщений: 1537

denzel1989 · 25-Май-19 18:05 (спустя 2 дня 1 час)

aeg-91 писал(а):
77419322СПАСИБО!!!!!!!!!!!!!! Мне очень нравится сериал,Денис ,а почему не выкладываешь Парализополис здесь?
Потому что он идёт в закрытой группе в отличии от этих трёх!
[Профиль]  [ЛС] 
 
Ответить
Loading...
Error