Кшиштоф Кесьлёвский - Польская школа документальных фильмов / Krzysztof Kieslowski - Polish School of Documentary (Кшиштоф Кесьлёвский / Krzysztof Kieslowski) [1969-1980, Польша, документальный, DVDRip] Sub Rus + Original Pol

Страницы:  1
Ответить
Автор
Сообщение

tеko

Moderator

Стаж: 10 лет 9 месяцев

Сообщений: 16586

tеko · 05-Ноя-18 13:15 (9 месяцев назад, ред. 07-Ноя-18 19:07)

Кшиштоф Кесьлёвский - Польская школа документальных фильмов / Krzysztof Kieslowski - Polish School of Documentary
Страна: Польша
Жанр: документальный
Год выпуска: 1969 - 1980
Перевод: Субтитры
Субтитры: русские
Оригинальная аудиодорожка: польский

Режиссер: Кшиштоф Кесьлёвский / Krzysztof Kieslowski
Описание: Сборник документальных фильмов польского режиссёра Кшиштофа Кесьлёвского
Сэмпл
Качество видео: DVDRip
Формат видео: AVI
Видео: 656x480 (1.37:1), 25 fps, XviD build 73 ~1998 kbps avg, 0.25 bit/pixel
Аудио: 48 kHz, AC3 Dolby Digital, 2/0 (L,R) ch, ~192 kbps
Формат субтитров: softsub (SRT)
Список фильмов, вошедших в раздачу
01. Из города Лодзь / Z miasta Lodzi
Страна: Польша
Жанр: Документальный, Короткометражка
Год выпуска: 1968
Продолжительность: 00:09:54
Перевод :Субтитры -
m12e
Описание: Дипломная работа Кшиштофа Кесьлевского. Фильм - портрет города Лодзи, в киношколе которого учился режиссёр. Рабочие будни на ткацкой фабрике, митинг протеста против роспуска рабочего оркестра, проводы на пенсию заслуженной работницы, конкурс любительской песни... Молодые люди сменяют в работе старшее поколение, новая "молодёжная" музыка сменяет "спокойную" старую, над городом возвышаются строящиеся многоэтажки...



02. Я был солдатом / Bylem zolnierzem
Страна: Польша
Жанр: Документальный, Короткометражка
Год выпуска: 1970
Продолжительность: 00:16:32
Перевод : Субтитры - группа "TRANSLATORS"

Описание: Короткометражный фильм, в котором ослепшие во время войны польские солдаты рассказывают о своей жизни. Составлен из отдельных кадров-фраз, которые при просмотре складываются в единый текст.



03. Рефрен / Refren
Страна:Польша
Жанр: Документальный, Короткометражка
Год выпуска: 1972
Продолжительность: 00:16:41
Перевод :Субтитры - m12e

Описание: Какой гроб взять и за сколько, какие украшение и атрибуты купить, какие цветы, где взять разрешение на погребение, бесконечные вопросы, кто кому кем является... Похоронный ритуал превратился в бюрократическое хождение по инстанциям. Потом уже и не понимаешь, чем заняты все эти люди. А на улице, тем временем, идёт обыкновенная шумная жизнь.



04. Каменщик / Murarz
Страна: Польша
Жанр: Документальный, Короткометражка
Год выпуска: 1973
Продолжительность: 00:16:27
Перевод : Субтитры - m12e

Описание: Герой фильма прошёл путь от простого каменщика до начальника отдела кадров в Варшавском совете. Из рабочего превратился в чиновника, целый день перебирающего бумаги за столом. А потом решил снова стать каменщиком. И делать ту работу, которая ему нравится, и результаты которой можно будет увидеть и через 10 лет.



05. Хлопушка / Klapspic
Страна: Польша
Жанр: Документальный, Короткометражка
Год выпуска: 1976
Продолжительность: 00:05:25
Перевод :Субтитры - m12e

Описание: Кинохлопушка (или просто хлопушка) - один из самых необходимых предметов в кинопроизводстве. Её хлопок и слова ассистента режиссёра: "сцена такая-то, дубль такой-то" обозначают начало съёмки. Используется она для синхронизации звука и видео, а также для облегчения ориентирования в отснятом материале при монтаже (каждая сцена начинается с изображения хлопушки, и потом легко понять, что именно это за сцена). Этой самой хлопушке Кесьлевский и посвятил свой фильм.



06. С точки зрения ночного сторожа / Z punktu widzenia nocnego portiera
Страна: Польша
Жанр: Документальный, Короткометражка
Год выпуска: 1977
Продолжительность: 00:15:47
Перевод : Субтитры - m12e

Описание: Этот человек работает добровольцем в дежурной бригаде. Он стоит на входе в здание, следя за тем, чтобы все входящие поставили штамп на пропуск, проверяет, соблюдают ли рыбаки все правила, смотрит документы у владельцев складов, ловит подростков, прогуливающих школу. Проверка людей стала его хобби, соблюдение законов для него важнее самих людей, для которых эти законы создавались.



07. Говорящие головы / Gadajace glowy
Страна: Польша
Жанр: Документальный, Короткометражка
Год выпуска: 1980
Продолжительность: 00:14:07
Перевод : Субтитры - marzin

Описание: Люди разных возрастов отвечают на три вопроса: "В каком году вы родились?", "Кто вы?", "Чего вы хотите больше всего?"
..."Говорящие головы" (Gadajace glowy, 1980) - бесстрастный отчет об опросе общественного мнения. Люди различных возрастов и профессий отвечали на вопросы о себе, своих мечтах и ожиданиях. Фильм отвергает любые художественные эффекты и предрешенные выводы; в то же время, он отказывается хоть в какой-то степени манипулировать утверждениями людей. Таким образом фильм явил болезненный экзистенциальный опыт современного общества...
MediaInfo
General
Complete name : H:\Krzysztof.Kieslowski_Polish.School.of.Documentary.1969-1980.dvdrip_[teko]\01_Z.miasta.Lodzi.1968.avi
Format : AVI
Format/Info : Audio Video Interleave
File size : 262 MiB
Duration : 16mn 39s
Overall bit rate : 2 200 Kbps
Writing application : VirtualDubMod 1.5.10.3 | www.virtualdub-fr.org || (build 2550/release)
Writing library : VirtualDubMod build 2550/release
Video
ID : 0
Format : MPEG-4 Visual
Format profile : Advanced [email protected]
Format settings, BVOP : 2
Format settings, QPel : No
Format settings, GMC : No warppoints
Format settings, Matrix : Custom
Codec ID : XVID
Codec ID/Hint : XviD
Duration : 16mn 39s
Bit rate : 1 999 Kbps
Width : 656 pixels
Height : 480 pixels
Display aspect ratio : 4:3
Frame rate : 25.000 fps
Color space : YUV
Chroma subsampling : 4:2:0
Bit depth : 8 bits
Scan type : Progressive
Compression mode : Lossy
Bits/(Pixel*Frame) : 0.254
Stream size : 238 MiB (91%)
Writing library : XviD 73
Audio
ID : 1
Format : AC-3
Format/Info : Audio Coding 3
Mode extension : CM (complete main)
Format settings, Endianness : Big
Codec ID : 2000
Duration : 16mn 39s
Bit rate mode : Constant
Bit rate : 192 Kbps
Channel(s) : 2 channels
Channel positions : Front: L R
Sampling rate : 48.0 KHz
Frame rate : 31.250 fps (1536 spf)
Compression mode : Lossy
Stream size : 22.9 MiB (9%)
Alignment : Split accross interleaves
Interleave, duration : 40 ms (1.00 video frame)
Interleave, preload duratio : 500 ms

General
Complete name : H:\Krzysztof.Kieslowski_Polish.School.of.Documentary.1969-1980.dvdrip_[teko]\02_Bylem.zolnierzem.1970.avi
Format : AVI
Format/Info : Audio Video Interleave
File size : 258 MiB
Duration : 16mn 33s
Overall bit rate : 2 182 Kbps
Writing application : VirtualDubMod 1.5.10.3 | www.virtualdub-fr.org || (build 2550/release)
Writing library : VirtualDubMod build 2550/release
Video
ID : 0
Format : MPEG-4 Visual
Format profile : Advanced [email protected]
Format settings, BVOP : 2
Format settings, QPel : No
Format settings, GMC : No warppoints
Format settings, Matrix : Custom
Codec ID : XVID
Codec ID/Hint : XviD
Duration : 16mn 33s
Bit rate : 1 981 Kbps
Width : 656 pixels
Height : 480 pixels
Display aspect ratio : 4:3
Frame rate : 25.000 fps
Color space : YUV
Chroma subsampling : 4:2:0
Bit depth : 8 bits
Scan type : Progressive
Compression mode : Lossy
Bits/(Pixel*Frame) : 0.252
Stream size : 235 MiB (91%)
Writing library : XviD 73
Audio
ID : 1
Format : AC-3
Format/Info : Audio Coding 3
Mode extension : CM (complete main)
Format settings, Endianness : Big
Codec ID : 2000
Duration : 16mn 33s
Bit rate mode : Constant
Bit rate : 192 Kbps
Channel(s) : 2 channels
Channel positions : Front: L R
Sampling rate : 48.0 KHz
Frame rate : 31.250 fps (1536 spf)
Compression mode : Lossy
Stream size : 22.7 MiB (9%)
Alignment : Split accross interleaves
Interleave, duration : 40 ms (1.00 video frame)
Interleave, preload duratio : 500 ms

General
Complete name : H:\Krzysztof.Kieslowski_Polish.School.of.Documentary.1969-1980.dvdrip_[teko]\03_Refrenю1972.avi
Format : AVI
Format/Info : Audio Video Interleave
File size : 156 MiB
Duration : 9mn 53s
Overall bit rate : 2 202 Kbps
Writing application : VirtualDubMod 1.5.10.3 | www.virtualdub-fr.org || (build 2550/release)
Writing library : VirtualDubMod build 2550/release
Video
ID : 0
Format : MPEG-4 Visual
Format profile : Advanced [email protected]
Format settings, BVOP : 2
Format settings, QPel : No
Format settings, GMC : No warppoints
Format settings, Matrix : Custom
Codec ID : XVID
Codec ID/Hint : XviD
Duration : 9mn 53s
Bit rate : 2 000 Kbps
Width : 656 pixels
Height : 480 pixels
Display aspect ratio : 4:3
Frame rate : 25.000 fps
Color space : YUV
Chroma subsampling : 4:2:0
Bit depth : 8 bits
Scan type : Progressive
Compression mode : Lossy
Bits/(Pixel*Frame) : 0.254
Stream size : 142 MiB (91%)
Writing library : XviD 73
Audio
ID : 1
Format : AC-3
Format/Info : Audio Coding 3
Mode extension : CM (complete main)
Format settings, Endianness : Big
Codec ID : 2000
Duration : 9mn 53s
Bit rate mode : Constant
Bit rate : 192 Kbps
Channel(s) : 2 channels
Channel positions : Front: L R
Sampling rate : 48.0 KHz
Frame rate : 31.250 fps (1536 spf)
Compression mode : Lossy
Stream size : 13.6 MiB (9%)
Alignment : Split accross interleaves
Interleave, duration : 40 ms (1.00 video frame)
Interleave, preload duratio : 500 ms

General
Complete name : H:\Krzysztof.Kieslowski_Polish.School.of.Documentary.1969-1980.dvdrip_[teko]\04_Murarz.1973.avi
Format : AVI
Format/Info : Audio Video Interleave
File size : 258 MiB
Duration : 16mn 26s
Overall bit rate : 2 190 Kbps
Writing application : VirtualDubMod 1.5.10.3 | www.virtualdub-fr.org || (build 2550/release)
Writing library : VirtualDubMod build 2550/release
Video
ID : 0
Format : MPEG-4 Visual
Format profile : Advanced [email protected]
Format settings, BVOP : 2
Format settings, QPel : No
Format settings, GMC : No warppoints
Format settings, Matrix : Custom
Codec ID : XVID
Codec ID/Hint : XviD
Duration : 16mn 26s
Bit rate : 1 989 Kbps
Width : 656 pixels
Height : 480 pixels
Display aspect ratio : 4:3
Frame rate : 25.000 fps
Color space : YUV
Chroma subsampling : 4:2:0
Bit depth : 8 bits
Scan type : Progressive
Compression mode : Lossy
Bits/(Pixel*Frame) : 0.253
Stream size : 234 MiB (91%)
Writing library : XviD 73
Audio
ID : 1
Format : AC-3
Format/Info : Audio Coding 3
Mode extension : CM (complete main)
Format settings, Endianness : Big
Codec ID : 2000
Duration : 16mn 26s
Bit rate mode : Constant
Bit rate : 192 Kbps
Channel(s) : 2 channels
Channel positions : Front: L R
Sampling rate : 48.0 KHz
Frame rate : 31.250 fps (1536 spf)
Compression mode : Lossy
Stream size : 22.6 MiB (9%)
Alignment : Split accross interleaves
Interleave, duration : 40 ms (1.00 video frame)
Interleave, preload duratio : 500 ms

General
Complete name : H:\Krzysztof.Kieslowski_Polish.School.of.Documentary.1969-1980.dvdrip_[teko]\05_Klaps.1976.avi
Format : AVI
Format/Info : Audio Video Interleave
File size : 85.1 MiB
Duration : 5mn 24s
Overall bit rate : 2 199 Kbps
Writing application : VirtualDubMod 1.5.10.3 | www.virtualdub-fr.org || (build 2550/release)
Writing library : VirtualDubMod build 2550/release
Video
ID : 0
Format : MPEG-4 Visual
Format profile : Advanced [email protected]
Format settings, BVOP : 2
Format settings, QPel : No
Format settings, GMC : No warppoints
Format settings, Matrix : Custom
Codec ID : XVID
Codec ID/Hint : XviD
Duration : 5mn 24s
Bit rate : 1 997 Kbps
Width : 656 pixels
Height : 400 pixels
Display aspect ratio : 16:10
Frame rate : 25.000 fps
Color space : YUV
Chroma subsampling : 4:2:0
Bit depth : 8 bits
Scan type : Progressive
Compression mode : Lossy
Bits/(Pixel*Frame) : 0.304
Stream size : 77.3 MiB (91%)
Writing library : XviD 73
Audio
ID : 1
Format : AC-3
Format/Info : Audio Coding 3
Mode extension : CM (complete main)
Format settings, Endianness : Big
Codec ID : 2000
Duration : 5mn 24s
Bit rate mode : Constant
Bit rate : 192 Kbps
Channel(s) : 2 channels
Channel positions : Front: L R
Sampling rate : 48.0 KHz
Frame rate : 31.250 fps (1536 spf)
Compression mode : Lossy
Stream size : 7.42 MiB (9%)
Alignment : Split accross interleaves
Interleave, duration : 40 ms (1.00 video frame)
Interleave, preload duratio : 500 ms

General
Complete name : H:\Krzysztof.Kieslowski_Polish.School.of.Documentary.1969-1980.dvdrip_[teko]\06_Z.punktu.widzenia.nocnego.portiera.1977.avi
Format : AVI
Format/Info : Audio Video Interleave
File size : 248 MiB
Duration : 15mn 47s
Overall bit rate : 2 192 Kbps
Writing application : VirtualDubMod 1.5.10.3 | www.virtualdub-fr.org || (build 2550/release)
Writing library : VirtualDubMod build 2550/release
Video
ID : 0
Format : MPEG-4 Visual
Format profile : Advanced [email protected]
Format settings, BVOP : 2
Format settings, QPel : No
Format settings, GMC : No warppoints
Format settings, Matrix : Custom
Codec ID : XVID
Codec ID/Hint : XviD
Duration : 15mn 47s
Bit rate : 1 990 Kbps
Width : 656 pixels
Height : 480 pixels
Display aspect ratio : 4:3
Frame rate : 25.000 fps
Color space : YUV
Chroma subsampling : 4:2:0
Bit depth : 8 bits
Scan type : Progressive
Compression mode : Lossy
Bits/(Pixel*Frame) : 0.253
Stream size : 225 MiB (91%)
Writing library : XviD 73
Audio
ID : 1
Format : AC-3
Format/Info : Audio Coding 3
Mode extension : CM (complete main)
Format settings, Endianness : Big
Codec ID : 2000
Duration : 15mn 47s
Bit rate mode : Constant
Bit rate : 192 Kbps
Channel(s) : 2 channels
Channel positions : Front: L R
Sampling rate : 48.0 KHz
Frame rate : 31.250 fps (1536 spf)
Compression mode : Lossy
Stream size : 21.7 MiB (9%)
Alignment : Split accross interleaves
Interleave, duration : 40 ms (1.00 video frame)
Interleave, preload duratio : 500 ms

General
Complete name : H:\Krzysztof.Kieslowski_Polish.School.of.Documentary.1969-1980.dvdrip_[teko]\07_Gadajace.glowy.1980.avi
Format : AVI
Format/Info : Audio Video Interleave
File size : 223 MiB
Duration : 14mn 8s
Overall bit rate : 2 202 Kbps
Writing application : VirtualDubMod 1.5.10.3 | www.virtualdub-fr.org || (build 2550/release)
Writing library : VirtualDubMod build 2550/release
Video
ID : 0
Format : MPEG-4 Visual
Format profile : Advanced [email protected]
Format settings, BVOP : 2
Format settings, QPel : No
Format settings, GMC : No warppoints
Format settings, Matrix : Custom
Codec ID : XVID
Codec ID/Hint : XviD
Duration : 14mn 8s
Bit rate : 2 000 Kbps
Width : 656 pixels
Height : 480 pixels
Display aspect ratio : 4:3
Frame rate : 25.000 fps
Color space : YUV
Chroma subsampling : 4:2:0
Bit depth : 8 bits
Scan type : Progressive
Compression mode : Lossy
Bits/(Pixel*Frame) : 0.254
Stream size : 202 MiB (91%)
Writing library : XviD 73
Audio
ID : 1
Format : AC-3
Format/Info : Audio Coding 3
Mode extension : CM (complete main)
Format settings, Endianness : Big
Codec ID : 2000
Duration : 14mn 8s
Bit rate mode : Constant
Bit rate : 192 Kbps
Channel(s) : 2 channels
Channel positions : Front: L R
Sampling rate : 48.0 KHz
Frame rate : 31.250 fps (1536 spf)
Compression mode : Lossy
Stream size : 19.4 MiB (9%)
Alignment : Split accross interleaves
Interleave, duration : 40 ms (1.00 video frame)
Interleave, preload duratio : 500 ms
Скриншоты
Из города Лодзь / Z miasta Lodzi



Я был солдатом / Bylem zolnierzem



Рефрен / Refren



Каменщик / Murarz



Хлопушка / Klaps



С точки зрения ночного сторожа / Z punktu widzenia nocnego portiera



Говорящие головы / Gadajace glowy

Релиз группы:


Download
Сайт не распространяет и не хранит электронные версии произведений, а лишь предоставляет доступ к создаваемому пользователями каталогу ссылок на торрент-файлы, которые содержат только списки хеш-сумм
Как скачивать? (для скачивания .torrent файлов необходима регистрация)
[Профиль]  [ЛС] 
 
Ответить
Loading...
Error