Далай-лама - Учения в Риге 10-11 октября 2016 года [2016, Буддизм, философия, HDTVRip]

Страницы:  1

Ответить
Автор
Сообщение

knutsen

Стаж: 4 года 4 месяца

Сообщений: 33

knutsen · 21-Окт-16 14:07 (2 года 7 месяцев назад)

Далай-лама - Учения в Риге
Дата/Год выпуска: 2016
Страна: Россия
Жанр: Буддизм, философия
Продолжительность: 06:46:23
Перевод: Одноголосый закадровый
Описание: Учения Его Святейшества Далай-ламы были посвящены второй главе известного сочинения Дхармакирти «Праманаварттика» (Комментарий к трактату Дигнаги о достоверном познании). Они состоялись в столице Латвии, Риге, 10-11 октября 2016 года.
Вторая глава «Праманаварттики», в силу особенной глубины, редко становится темой публичных учений Его Святейшества Далай-ламы в Западных странах. А потому собственный выбор Его Святейшества свидетельствует о его особом доверии к аудитории рижских учений. Всякий раз, когда оргкомитет во главе с Тэло Тулку Ринпоче удостаивался встречи с Его Святейшеством, он с большой уверенностью и радостью повторял, что помнит о своем намерении даровать учения по сочинению Дхармакирти и непременно его осуществит.
Доп. информация:
Подробнее о «Праманаварттике»
Учения были посвящены второй главе известного сочинения Дхармакирти «Праманаварттика» (Комментарий к трактату Дигнаги о достоверном познании). Вторая глава отвечает на ключевой вопрос, волнующий каждого серьезного духовного практика: достижима ли высшая цель духовных исканий ‒ пробуждение? В ней логически обосновывается существование прошлых и будущих жизней, а также основополагающее учение Будды Шакьямуни о Четырех благородных истинах (о страдании; причине страдания; возможности полного прекращения страдания и пути его преодоления).
Вторая глава «Праманаварттики», в силу особенной глубины, редко становится темой публичных учений Его Святейшества Далай-ламы в Западных странах. А потому собственный выбор Его Святейшества свидетельствует о его особом доверии к аудитории рижских учений. Всякий раз, когда оргкомитет во главе с Тэло Тулку Ринпоче удостаивался встречи с Его Святейшеством, он с большой уверенностью и радостью повторял, что помнит о своем намерении даровать учения по сочинению Дхармакирти и непременно его осуществит.
Дхармакирти – один из семнадцати выдающихся ученых-философов (пандит) древнеиндийского монастырского университета Наланда, духовными преемниками которого Его Святейшество Далай-лама считает последователей тибетского буддизма. Духовный лидер, как правило, называет семнадцать пандит «профессурой Наланды», подчеркивая актуальность их учений для современного мира.
«Тибетский буддизм, уходящий корнями в традиции монастыря-университета Наланда, – самое полное направление в буддизме из существующих на сегодняшний день. В то время как религиозные практики буддизма представляют интерес исключительно для буддистов, изучение буддийской логики и теории познания, а также науки о сознании и эмоциях, разработанные учителями Наланды, будет полезно каждому человеку», – подчеркивает Его Святейшество Далай-лама.
Благодарность Фонду «Сохраним Тибет» и организаторам!
Сэмпл: http://sendfile.su/1276305
качество: HDTVRip
формат: AVI
Видео: Xvid 720x400 25fps 1599kbps
Аудио: MP3 48000Hz mono 128kbps
MediaInfo
Общее
Полное имя : Dalai Lama. Riga 2016\Pramanavarttika - Session 1.avi
Формат : AVI
Формат/Информация : Audio Video Interleave
Размер файла : 344 Мбайт
Продолжительность : 28 м.
Общий поток : 1667 Кбит/сек
Программа кодирования : VirtualDubMod 1.5.10.3 | www.virtualdub-fr.org || (build 2550/release)
Библиотека кодирования : VirtualDubMod build 2550/release
Видео
Идентификатор : 0
Формат : MPEG-4 Visual
Профиль формата : Advanced [email protected]
Параметр BVOP формата : 2
Параметр QPel формата : Нет
Параметр GMC формата : Без точки перехода
Параметр матрицы формата : Default (MPEG)
Идентификатор кодека : XVID
Идентификатор кодека/Подсказка : XviD
Продолжительность : 28 м.
Битрейт : 1529 Кбит/сек
Ширина : 720 пикселей
Высота : 400 пикселей
Соотношение сторон : 16:9
Частота кадров : 25,000 кадров/сек
Цветовое пространство : YUV
Субдискретизация насыщенности : 4:2:0
Битовая глубина : 8 бит
Тип развёртки : Прогрессивная
Метод сжатия : С потерями
Бит/(Пиксели*Кадры) : 0.212
Размер потока : 316 Мбайт (92%)
Библиотека кодирования : XviD 1.2.1 (UTC 2008-12-04)
Аудио
Идентификатор : 1
Формат : MPEG Audio
Версия формата : Version 1
Профиль формата : Layer 3
Идентификатор кодека : 55
Идентификатор кодека/Подсказка : MP3
Продолжительность : 28 м.
Вид битрейта : Постоянный
Битрейт : 128 Кбит/сек
Каналы : 1 канал
Частота : 48,0 КГц
Метод сжатия : С потерями
Размер потока : 26,4 Мбайт (8%)
Выравнивание : Соединение по промежуткам
Продолжительность промежутка : 40 мс. (1,00 видеокадр)
Время предзагрузки промежутка : 504 мс.
Библиотека кодирования : LAME3.99r
Настройки программы : -m m -V 4 -q 0 -lowpass 20.5 -b 128
Общее
Полное имя : Dalai Lama. Riga 2016\Pramanavarttika - Session 2.avi
Формат : AVI
Формат/Информация : Audio Video Interleave
Размер файла : 1,51 Гбайт
Продолжительность : 2 ч. 4 м.
Общий поток : 1738 Кбит/сек
Программа кодирования : VirtualDubMod 1.5.10.3 | www.virtualdub-fr.org || (build 2550/release)
Библиотека кодирования : VirtualDubMod build 2550/release
Видео
Идентификатор : 0
Формат : MPEG-4 Visual
Профиль формата : Advanced [email protected]
Параметр BVOP формата : 2
Параметр QPel формата : Нет
Параметр GMC формата : Без точки перехода
Параметр матрицы формата : Default (MPEG)
Идентификатор кодека : XVID
Идентификатор кодека/Подсказка : XviD
Продолжительность : 2 ч. 4 м.
Битрейт : 1600 Кбит/сек
Ширина : 720 пикселей
Высота : 400 пикселей
Соотношение сторон : 16:9
Частота кадров : 25,000 кадров/сек
Цветовое пространство : YUV
Субдискретизация насыщенности : 4:2:0
Битовая глубина : 8 бит
Тип развёртки : Прогрессивная
Метод сжатия : С потерями
Бит/(Пиксели*Кадры) : 0.222
Размер потока : 1,39 Гбайт (92%)
Библиотека кодирования : XviD 1.2.1 (UTC 2008-12-04)
Аудио
Идентификатор : 1
Формат : MPEG Audio
Версия формата : Version 1
Профиль формата : Layer 3
Идентификатор кодека : 55
Идентификатор кодека/Подсказка : MP3
Продолжительность : 2 ч. 4 м.
Вид битрейта : Постоянный
Битрейт : 128 Кбит/сек
Каналы : 1 канал
Частота : 48,0 КГц
Метод сжатия : С потерями
Размер потока : 114 Мбайт (7%)
Выравнивание : Соединение по промежуткам
Продолжительность промежутка : 40 мс. (1,00 видеокадр)
Время предзагрузки промежутка : 504 мс.
Библиотека кодирования : LAME3.99r
Настройки программы : -m m -V 4 -q 0 -lowpass 20.5 -b 128
Общее
Полное имя : Dalai Lama. Riga 2016\Pramanavarttika - Session 3.avi
Формат : AVI
Формат/Информация : Audio Video Interleave
Размер файла : 1,26 Гбайт
Продолжительность : 1 ч. 43 м.
Общий поток : 1738 Кбит/сек
Программа кодирования : VirtualDubMod 1.5.10.3 | www.virtualdub-fr.org || (build 2550/release)
Библиотека кодирования : VirtualDubMod build 2550/release
Видео
Идентификатор : 0
Формат : MPEG-4 Visual
Профиль формата : Advanced [email protected]
Параметр BVOP формата : 2
Параметр QPel формата : Нет
Параметр GMC формата : Без точки перехода
Параметр матрицы формата : Default (MPEG)
Идентификатор кодека : XVID
Идентификатор кодека/Подсказка : XviD
Продолжительность : 1 ч. 43 м.
Битрейт : 1600 Кбит/сек
Ширина : 720 пикселей
Высота : 400 пикселей
Соотношение сторон : 16:9
Частота кадров : 25,000 кадров/сек
Цветовое пространство : YUV
Субдискретизация насыщенности : 4:2:0
Битовая глубина : 8 бит
Тип развёртки : Прогрессивная
Метод сжатия : С потерями
Бит/(Пиксели*Кадры) : 0.222
Размер потока : 1,16 Гбайт (92%)
Библиотека кодирования : XviD 1.2.1 (UTC 2008-12-04)
Аудио
Идентификатор : 1
Формат : MPEG Audio
Версия формата : Version 1
Профиль формата : Layer 3
Идентификатор кодека : 55
Идентификатор кодека/Подсказка : MP3
Продолжительность : 1 ч. 43 м.
Вид битрейта : Постоянный
Битрейт : 128 Кбит/сек
Каналы : 1 канал
Частота : 48,0 КГц
Метод сжатия : С потерями
Размер потока : 94,7 Мбайт (7%)
Выравнивание : Соединение по промежуткам
Продолжительность промежутка : 40 мс. (1,00 видеокадр)
Время предзагрузки промежутка : 504 мс.
Библиотека кодирования : LAME3.99r
Настройки программы : -m m -V 4 -q 0 -lowpass 20.5 -b 128
Общее
Полное имя : Dalai Lama. Riga 2016\Pramanavarttika - Session 4.avi
Формат : AVI
Формат/Информация : Audio Video Interleave
Размер файла : 1,81 Гбайт
Продолжительность : 2 ч. 29 м.
Общий поток : 1738 Кбит/сек
Программа кодирования : VirtualDubMod 1.5.10.3 | www.virtualdub-fr.org || (build 2550/release)
Библиотека кодирования : VirtualDubMod build 2550/release
Видео
Идентификатор : 0
Формат : MPEG-4 Visual
Профиль формата : Advanced [email protected]
Параметр BVOP формата : 2
Параметр QPel формата : Нет
Параметр GMC формата : Без точки перехода
Параметр матрицы формата : Default (MPEG)
Идентификатор кодека : XVID
Идентификатор кодека/Подсказка : XviD
Продолжительность : 2 ч. 29 м.
Битрейт : 1600 Кбит/сек
Ширина : 720 пикселей
Высота : 400 пикселей
Соотношение сторон : 16:9
Частота кадров : 25,000 кадров/сек
Цветовое пространство : YUV
Субдискретизация насыщенности : 4:2:0
Битовая глубина : 8 бит
Тип развёртки : Прогрессивная
Метод сжатия : С потерями
Бит/(Пиксели*Кадры) : 0.222
Размер потока : 1,67 Гбайт (92%)
Библиотека кодирования : XviD 1.2.1 (UTC 2008-12-04)
Аудио
Идентификатор : 1
Формат : MPEG Audio
Версия формата : Version 1
Профиль формата : Layer 3
Идентификатор кодека : 55
Идентификатор кодека/Подсказка : MP3
Продолжительность : 2 ч. 29 м.
Вид битрейта : Постоянный
Битрейт : 128 Кбит/сек
Каналы : 1 канал
Частота : 48,0 КГц
Метод сжатия : С потерями
Размер потока : 137 Мбайт (7%)
Выравнивание : Соединение по промежуткам
Продолжительность промежутка : 40 мс. (1,00 видеокадр)
Время предзагрузки промежутка : 504 мс.
Библиотека кодирования : LAME3.99r
Настройки программы : -m m -V 4 -q 0 -lowpass 20.5 -b 128
Скриншоты
Download
Для скачивания .torrent файлов необходима регистрация
Сайт не распространяет и не хранит электронные версии произведений, а лишь предоставляет доступ к создаваемому пользователями каталогу ссылок на торрент-файлы, которые содержат только списки хеш-сумм
[Профиль]  [ЛС] 
 
Ответить
Loading...
Error