Мерцание / Flicker (Ник Шиэн / Nik Sheehan) [2008, Канада, документальный, DVDRip] Sub Rus (Severnyj) + original

Страницы:  1
Ответить
Автор
Сообщение

jekyll_89

Стаж: 8 лет 11 месяцев

Сообщений: 422

jekyll_89 · 01-Авг-13 20:59 (6 лет назад, ред. 01-Авг-13 21:10)

Мерцание / Flicker Страна: Канада
Жанр: документальный
Год выпуска: 2008
Продолжительность: 01:12:04
Перевод: Субтитры (Severnyj)
Субтитры: русские (.srt)
Оригинальная аудиодорожка: английский/французский
Режиссер: Ник Шиэн / Nik Sheehan
В ролях: Брайон Гайсин, Уильям Берроуз, Игги Поп, Кеннет Энгер, Psychic TV, The Stooges и другие
Описание: Документальный фильм о машине сновидений Брайона Гайсина.
За появление релиза выражается благодарность пользователям: Voqkrre, AlexNever, PanSabotage, Synoptik
Релиз:

videodemons
Качество видео: DVDRip
Формат видео: AVI
Видео: 720x400, 29.97 fps, 1 194 Kbps
Аудио: 48 kHz, MPEG Layer 3, 2 ch, 132 kbps
Фрагмент субтитров
1
00:00:09,731 --> 00:00:20,569
"Мы должны штурмовать цитадели
просвещения, все средства под рукой."
- Уильям Берроуз, из письма Брайону Гайсину.
2
00:00:24,004 --> 00:00:26,004
Его зовут Брайон Гайсин.
3
00:00:31,133 --> 00:00:34,709
Он родился в Англии, в 1916 году,
мать была канадкой, а отец -
4
00:00:34,710 --> 00:00:38,852
британцем, погибшим в окопах во Франции,
когда Брайон был ещё младенцем.
5
00:00:38,978 --> 00:00:41,095
Он вырос в Эдмонтоне, столице канадской
провинции Альберта,
6
00:00:41,143 --> 00:00:44,400
а потом вернулся в Англию, чтобы поступить
в католическую школу для мальчиков.
7
00:00:44,494 --> 00:00:47,837
Он так и не смог определиться, какой
был национальности. Иногда он был...
8
00:00:47,838 --> 00:00:51,133
...швейцарцем, иногда британцем,
американцем, французом или марроканцем.
9
00:00:51,893 --> 00:00:55,792
Он злился, если кто-нибудь называл
его канадцем, но изучал японскую каллиграфию,
10
00:00:55,947 --> 00:00:58,122
которая была так важна для его
искусства, во время обучения...
11
00:00:58,123 --> 00:01:00,007
...шпионажу в канадской армии
во Вторую мировую войну.
12
00:01:02,037 --> 00:01:06,031
Он встретил человека по имени
Уильям С. Берроуз в Танжере в 1954.
MediaInfo
General
Complete name : C:\Flicker_2008\Flicker.avi
Format : AVI
Format/Info : Audio Video Interleave
File size : 690 MiB
Duration : 1h 12mn
Overall bit rate : 1 340 Kbps
Writing application : ogmrip-0.13.6
Video
ID : 0
Format : MPEG-4 Visual
Format profile : Advanced [email protected]
Format settings, BVOP : 2
Format settings, QPel : No
Format settings, GMC : No warppoints
Format settings, Matrix : Default (H.263)
Codec ID : XVID
Codec ID/Hint : XviD
Duration : 1h 12mn
Bit rate : 1 194 Kbps
Width : 720 pixels
Height : 400 pixels
Display aspect ratio : 16:9
Frame rate : 29.970 fps
Color space : YUV
Chroma subsampling : 4:2:0
Bit depth : 8 bits
Scan type : Progressive
Compression mode : Lossy
Bits/(Pixel*Frame) : 0.138
Stream size : 615 MiB (89%)
Writing library : XviD 64
Audio
ID : 1
Format : MPEG Audio
Format version : Version 1
Format profile : Layer 3
Mode : Joint stereo
Mode extension : MS Stereo
Codec ID : 55
Codec ID/Hint : MP3
Duration : 1h 12mn
Bit rate mode : Variable
Bit rate : 132 Kbps
Minimum bit rate : 32.0 Kbps
Channel(s) : 2 channels
Sampling rate : 48.0 KHz
Compression mode : Lossy
Stream size : 67.9 MiB (10%)
Alignment : Aligned on interleaves
Interleave, duration : 24 ms (0.72 video frame)
Writing library : LAME3.99r
Encoding settings : -m j -V 4 -q 0 -lowpass 17.5 --vbr-new -b 32
Скриншоты
Download
Сайт не распространяет и не хранит электронные версии произведений, а лишь предоставляет доступ к создаваемому пользователями каталогу ссылок на торрент-файлы, которые содержат только списки хеш-сумм
Как скачивать? (для скачивания .torrent файлов необходима регистрация)
[Профиль]  [ЛС] 

cedr

Admin gray

Стаж: 11 лет 4 месяца

Сообщений: 32154

cedr · 03-Авг-13 12:45 (спустя 1 день 15 часов)

Цитата:
для NTSC видео не устранена телекино-поcледовательность, нарушение порядка кадров или их недостача
Цитата:
звуковые дорожки закодированы кодеками отличными от AC3 или MP3 или закодированы в режиме переменного битрейта
  1. Критерии присвоения статусов # сомнительно ⇒
к сожалению, только
# сомнительно

[Профиль]  [ЛС] 

Gersuzu

Стаж: 10 лет 1 месяц

Сообщений: 833

Gersuzu · 22-Дек-13 12:17 (спустя 4 месяца 18 дней, ред. 22-Дек-13 12:17)

cedr писал(а):
для NTSC видео не устранена телекино-поcледовательность, нарушение порядка кадров или их недостача
Да не требуется это в данном файле! Нет никакого нарушения порядка кадров. Всё плавно.
[Профиль]  [ЛС] 

dr.morozov

Стаж: 8 лет 11 месяцев

Сообщений: 799


dr.morozov · 12-Май-14 13:18 (спустя 4 месяца 21 день)

Отличная возможность для всех, кто интересуется контркультурой, увидеть в одном фильме то, что может объединять таких разных людей (кроме самого Гайсина и Берроуза), как Genesis P-Orridge, Kenneth Anger и Floria Sigismondi (да и многих других музыкантов, режиссёров, художников). Давно у меня лежал скачанный с пиратской бухты рип оригинала, всё руки не доходили посмотреть. А тут уже с переводом! Спасибо за русские субтитры.
[Профиль]  [ЛС] 
 
Ответить
Loading...
Error