(Praise & Worship, Christian rock) Hillsong Live - God Is Able - 2011, FLAC (tracks+.cue), lossless

Страницы:  1

Ответить
Автор
Сообщение

Merseph

Стаж: 10 лет 8 месяцев

Сообщений: 545

Merseph · 02-Фев-12 09:47 (7 лет 4 месяца назад, ред. 05-Дек-12 14:16)

Hillsong Live - God Is Able
Жанр: Praise & Worship, Christian rock
Год издания диска: 2011
Издатель (лейбл): Hillsong Music Australia
Страна: Australia
Аудиокодек: FLAC (*.flac)
Тип рипа: tracks+.cue
Битрейт аудио: lossless
Продолжительность: 1:08:15
Источник (релизер): what.cd (Twitter)
Наличие сканов в содержимом раздачи: нет
Треклист:
01. Rise (6:02)
02. With Us (4:42)
03. Unending Love (6:21)
04. The Lost Are Found (8:02)
05. God Is Able (4:40)
06. The Difference (3:48)
07. Alive In Us (4:32)
08. You Are More (5:48)
09. Narrow Road (4:45)
10. My Heart Is Overwhelmed (5:11)
11. Cry Of The Broken (3:55)
12. Go (4:24)
13. Awakening (6:05)

Лог создания рипа
Exact Audio Copy V0.99 prebeta 5 from 4. May 2009
EAC extraction logfile from 3. July 2011, 20:06
Hillsong Live / God Is Able
Used drive : TSSTcorpCDDVDW SH-S223F Adapter: 0 ID: 1
Read mode : Secure
Utilize accurate stream : Yes
Defeat audio cache : Yes
Make use of C2 pointers : No
Read offset correction : 6
Overread into Lead-In and Lead-Out : No
Fill up missing offset samples with silence : Yes
Delete leading and trailing silent blocks : No
Null samples used in CRC calculations : No
Used interface : Native Win32 interface for Win NT & 2000
Gap handling : Appended to previous track
Used output format : User Defined Encoder
Selected bitrate : 1024 kBit/s
Quality : High
Add ID3 tag : No
Command line compressor : C:\Program Files\Exact Audio Copy\FLAC\FLAC.EXE
Additional command line options : -8 -T "artist=%a" -T "title=%t" -T "album=%g" -T "date=%y" -T "tracknumber=%n" -T "genre=%m" %s
TOC of the extracted CD
Track | Start | Length | Start sector | End sector
---------------------------------------------------------
1 | 0:00.00 | 6:01.39 | 0 | 27113
2 | 6:01.39 | 4:41.52 | 27114 | 48240
3 | 10:43.16 | 6:20.60 | 48241 | 76800
4 | 17:04.01 | 8:01.41 | 76801 | 112916
5 | 25:05.42 | 4:40.12 | 112917 | 133928
6 | 29:45.54 | 3:48.37 | 133929 | 151065
7 | 33:34.16 | 4:31.59 | 151066 | 171449
8 | 38:06.00 | 5:47.43 | 171450 | 197517
9 | 43:53.43 | 4:45.01 | 197518 | 218893
10 | 48:38.44 | 5:11.08 | 218894 | 242226
11 | 53:49.52 | 3:55.35 | 242227 | 259886
12 | 57:45.12 | 4:24.18 | 259887 | 279704
13 | 62:09.30 | 6:05.37 | 279705 | 307116
Track 1
Filename C:\Documents and Settings\Owner\Desktop\what.cd\01. Rise.wav
Pre-gap length 0:00:02.00
Peak level 99.9 %
Track quality 100.0 %
Test CRC 9BB330C5
Copy CRC 9BB330C5
Track not present in AccurateRip database
Copy OK
Track 2
Filename C:\Documents and Settings\Owner\Desktop\what.cd\02. With Us.wav
Pre-gap length 0:00:00.01
Peak level 99.9 %
Track quality 100.0 %
Test CRC 5A294951
Copy CRC 5A294951
Track not present in AccurateRip database
Copy OK
Track 3
Filename C:\Documents and Settings\Owner\Desktop\what.cd\03. Unending Love.wav
Pre-gap length 0:00:00.01
Peak level 99.8 %
Track quality 100.0 %
Test CRC 86A3B06F
Copy CRC 86A3B06F
Track not present in AccurateRip database
Copy OK
Track 4
Filename C:\Documents and Settings\Owner\Desktop\what.cd\04. The Lost Are Found.wav
Pre-gap length 0:00:00.01
Peak level 99.8 %
Track quality 100.0 %
Test CRC FB51105A
Copy CRC FB51105A
Track not present in AccurateRip database
Copy OK
Track 5
Filename C:\Documents and Settings\Owner\Desktop\what.cd\05. God Is Able.wav
Pre-gap length 0:00:00.01
Peak level 99.8 %
Track quality 100.0 %
Test CRC F8F95A9B
Copy CRC F8F95A9B
Track not present in AccurateRip database
Copy OK
Track 6
Filename C:\Documents and Settings\Owner\Desktop\what.cd\06. The Difference.wav
Peak level 99.9 %
Track quality 100.0 %
Test CRC 0D8A21C0
Copy CRC 0D8A21C0
Track not present in AccurateRip database
Copy OK
Track 7
Filename C:\Documents and Settings\Owner\Desktop\what.cd\07. Alive In Us.wav
Peak level 99.9 %
Track quality 100.0 %
Test CRC 798FE1EB
Copy CRC 798FE1EB
Track not present in AccurateRip database
Copy OK
Track 8
Filename C:\Documents and Settings\Owner\Desktop\what.cd\08. You Are More.wav
Pre-gap length 0:00:00.01
Peak level 99.8 %
Track quality 100.0 %
Test CRC C53DCE21
Copy CRC C53DCE21
Track not present in AccurateRip database
Copy OK
Track 9
Filename C:\Documents and Settings\Owner\Desktop\what.cd\09. Narrow Road.wav
Peak level 99.8 %
Track quality 100.0 %
Test CRC E70CCB5C
Copy CRC E70CCB5C
Track not present in AccurateRip database
Copy OK
Track 10
Filename C:\Documents and Settings\Owner\Desktop\what.cd\10. My Heart Is Overwhelmed.wav
Peak level 99.9 %
Track quality 100.0 %
Test CRC 5DE7532A
Copy CRC 5DE7532A
Track not present in AccurateRip database
Copy OK
Track 11
Filename C:\Documents and Settings\Owner\Desktop\what.cd\11. Cry Of The Broken.wav
Peak level 98.8 %
Track quality 100.0 %
Test CRC 5E95ECC0
Copy CRC 5E95ECC0
Track not present in AccurateRip database
Copy OK
Track 12
Filename C:\Documents and Settings\Owner\Desktop\what.cd\12. Go.wav
Pre-gap length 0:00:00.24
Peak level 99.8 %
Track quality 100.0 %
Test CRC DA289082
Copy CRC DA289082
Track not present in AccurateRip database
Copy OK
Track 13
Filename C:\Documents and Settings\Owner\Desktop\what.cd\13. Awakening.wav
Peak level 99.9 %
Track quality 100.0 %
Test CRC 5F2195AB
Copy CRC 5F2195AB
Track not present in AccurateRip database
Copy OK
None of the tracks are present in the AccurateRip database
No errors occurred
End of status report
Содержание индексной карты (.CUE)
REM GENRE "Christian Rock"
REM DATE 2011
REM DISCID AF0FFE0D
REM COMMENT "ExactAudioCopy v0.99pb5"
PERFORMER "Hillsong Live"
TITLE "God Is Able"
FILE "01. Rise.wav" WAVE
TRACK 01 AUDIO
TITLE "Rise"
PERFORMER "Hillsong Live"
INDEX 01 00:00:00
TRACK 02 AUDIO
TITLE "With Us"
PERFORMER "Hillsong Live"
INDEX 00 06:01:38
FILE "02. With Us.wav" WAVE
INDEX 01 00:00:00
TRACK 03 AUDIO
TITLE "Unending Love"
PERFORMER "Hillsong Live"
INDEX 00 04:41:51
FILE "03. Unending Love.wav" WAVE
INDEX 01 00:00:00
TRACK 04 AUDIO
TITLE "The Lost Are Found"
PERFORMER "Hillsong Live"
INDEX 00 06:20:59
FILE "04. The Lost Are Found.wav" WAVE
INDEX 01 00:00:00
TRACK 05 AUDIO
TITLE "God Is Able"
PERFORMER "Hillsong Live"
INDEX 00 08:01:40
FILE "05. God Is Able.wav" WAVE
INDEX 01 00:00:00
FILE "06. The Difference.wav" WAVE
TRACK 06 AUDIO
TITLE "The Difference"
PERFORMER "Hillsong Live"
INDEX 01 00:00:00
FILE "07. Alive In Us.wav" WAVE
TRACK 07 AUDIO
TITLE "Alive In Us"
PERFORMER "Hillsong Live"
INDEX 01 00:00:00
TRACK 08 AUDIO
TITLE "You Are More"
PERFORMER "Hillsong Live"
INDEX 00 04:31:58
FILE "08. You Are More.wav" WAVE
INDEX 01 00:00:00
FILE "09. Narrow Road.wav" WAVE
TRACK 09 AUDIO
TITLE "Narrow Road"
PERFORMER "Hillsong Live"
INDEX 01 00:00:00
FILE "10. My Heart Is Overwhelmed.wav" WAVE
TRACK 10 AUDIO
TITLE "My Heart Is Overwhelmed"
PERFORMER "Hillsong Live"
INDEX 01 00:00:00
FILE "11. Cry Of The Broken.wav" WAVE
TRACK 11 AUDIO
TITLE "Cry Of The Broken"
PERFORMER "Hillsong Live"
INDEX 01 00:00:00
TRACK 12 AUDIO
TITLE "Go"
PERFORMER "Hillsong Live"
INDEX 00 03:55:11
FILE "12. Go.wav" WAVE
INDEX 01 00:00:00
FILE "13. Awakening.wav" WAVE
TRACK 13 AUDIO
TITLE "Awakening"
PERFORMER "Hillsong Live"
INDEX 01 00:00:00
Лог проверки качества
AUDIOCHECKER v2.0 beta (build 457) - by Dester - [email protected]
~~~~~~~~~~~~~~~~~~~~~~~~~~~~~~~~~~
-=== DO NOT EDIT THIS FILE! ===-
Path: ...\2011 - God Is Able
01 -=- 01. Rise.flac -=- CDDA (99%)
02 -=- 02. With Us.flac -=- CDDA (100%)
03 -=- 03. Unending Love.flac -=- CDDA (100%)
04 -=- 04. The Lost Are Found.flac -=- CDDA (100%)
05 -=- 05. God Is Able.flac -=- CDDA (100%)
06 -=- 06. The Difference.flac -=- CDDA (100%)
07 -=- 07. Alive In Us.flac -=- CDDA (99%)
08 -=- 08. You Are More.flac -=- CDDA (100%)
09 -=- 09. Narrow Road.flac -=- CDDA (100%)
10 -=- 10. My Heart Is Overwhelmed.flac -=- CDDA (100%)
11 -=- 11. Cry Of The Broken.flac -=- CDDA (100%)
12 -=- 12. Go.flac -=- CDDA (100%)
13 -=- 13. Awakening.flac -=- CDDA (100%)
Summary 99,85% CDDA
83015716


Download
Для скачивания .torrent файлов необходима регистрация
Сайт не распространяет и не хранит электронные версии произведений, а лишь предоставляет доступ к создаваемому пользователями каталогу ссылок на торрент-файлы, которые содержат только списки хеш-сумм
[Профиль]  [ЛС] 

meloman67

Moderator

Стаж: 10 лет 2 месяца

Сообщений: 6135

meloman67 · 08-Апр-13 20:02 (спустя 1 год 2 месяца)

Hillsong - God Is Able [2011, Contemporary worship, BDRip 1080p]
[Профиль]  [ЛС] 

victor111802

Стаж: 9 лет 1 месяц

Сообщений: 203


victor111802 · 20-Май-19 05:45 (спустя 6 лет 1 месяц)

RAZDAITE PLIZ
[Профиль]  [ЛС] 
 
Ответить
Loading...
Error