(Pop) Thomas Anders und Modern Talking - Hits & Raritäten - 2011, APE (image+.cue), lossless

Страницы:  1
Ответить
Автор
Сообщение

jd250872jd

Top Seed 03* 160r

Стаж: 11 лет 2 месяца

Сообщений: 985

jd250872jd · 09-Янв-12 16:17 (7 лет 7 месяцев назад, ред. 28-Окт-12 21:02)

Thomas Anders und Modern Talking / Hits & Raritäten
Жанр: Pop
Страна-производитель диска: Germany
Год издания диска: 2011
Издатель (лейбл): Sony Music
Номер по каталогу: 88697 96934 2
Страна: Germany
Аудиокодек: APE (*.ape)
Тип рипа: image+.cue
Битрейт аудио: lossless
Продолжительность: 03:51:35
Источник (релизер): Собственный диск
Наличие сканов в содержимом раздачи: да = 300dpi
Треклист:
CD1 - Thomas Anders 1980-1984
1-01 Judy
1-02 Liebe Ist Ein Zweites Leben
1-03 Du Weinst Um Ihn
1-04 Einer Von Uns Beiden
1-05 Es War Die Nacht Der Ersten Liebe
1-06 Mädchen So Wie Du
1-07 Ich Will Nicht Dein Leben
1-08 Ich Hatte Mal Freunde
1-09 Was Macht Das Schon (Pick Up The Phone)
1-10 Steig Aus, Wenn Du Kannst
1-11 Wovon Träumst Du Denn (In Seinen Armen)
1-12 Du Bist Die Frau Fürs Leben
1-13 Endstation Sehnsucht
1-14 Zwischen Himmel Und Hölle
1-15 Heißkalter Engel (Send Me An Angel)
1-16 Wie Ein Verbotener Kontinent
1-17 Es Geht Mir Gut Heut Nacht
1-18 Und Wenn Die Sonne Schlafen Geht
1-19 Catch Me I'm Falling (Single Version)
1-20 Catch Me I'm Falling (Long Version)
CD2 - Modern Talking 1984-2003
2-01 You're My Heart, You're My Soul
2-02 You Can Win If You Want (Special Single Remix)
2-03 Lucky Guy
2-04 Cheri, Cheri Lady
2-05 Brother Louie
2-06 Atlantis Is Calling (S.O.S. For Love)
2-07 Angie's Heart
2-08 Geronimo's Cadillac
2-09 Give Me Peace On Earth
2-10 Jet Airliner (Radio Version)
2-11 In 100 Years
2-12 Anything Is Possible
2-13 You Are Not Alone
2-14 Love Is Like A Rainbow
2-15 Love Is Forever
2-16 I Need You Now
2-17 Ready For The Victory
2-18 Mrs. Robota
2-19 Love To Love You
2-20 Blackbird
CD3 - Thomas Anders 1989-2009
3-01 Love Of My Own (Single Version)
3-02 One Thing
3-03 Turn On The Light
3-04 Soldier
3-05 The Sweet Hello, The Sad Goodbye
3-06 Más Que Amor (Can't Give You Anything But My Love)
3-07 Whispers Of Love
3-08 How Deep Is Your Love
3-09 My One And Only
3-10 When Will I See You Again
3-11 The Love In Me
3-12 A Little Bit Of Lovin' (Airplay Mix)
3-13 Independent Girl
3-14 King Of Love
3-15 Never Been Loved Before
3-16 Just Dream (Ballad Version)
3-17 The Night Is Still Young
3-18 Geboren
3-19 Songs That Live Forever
3-20 You're My Heart, You're My Soul
Лог создания рипа:
Лог CD1
Exact Audio Copy V0.99 prebeta 3 from 28. July 2007
Отчёт EAC об извлечении, выполненном 6. января 2012, 20:23
Thomas Anders / Hits & Raritaten
Дисковод: PIONEER DVD-RW DVR-112D Adapter: 1 ID: 0
Режим чтения : Достоверность
Использование точного потока : Да
Отключение кэша аудио : Да
Использование указателей C2 : Нет
Коррекция смещения при чтении : 48
Способность читать области Lead-in и Lead-out : Нет
Заполнение пропущенных сэмплов тишиной : Да
Удаление блоков с тишиной в начале и конце : Нет
При вычислениях CRC использовались нулевые сэмплы : Да
Интерфейс : Встроенный Win32-интерфейс для Win NT/2000
Выходной формат : Внутренние WAV-операции
Формат сэмплов : 44.100 Гц; 16 бит; стерео
TOC извлечённого CD
Трек | Старт | Длительность | Начальный сектор | Конечный сектор
---------------------------------------------------------------------
1 | 0:00.00 | 4:17.33 | 0 | 19307
2 | 4:17.33 | 3:53.20 | 19308 | 36802
3 | 8:10.53 | 4:00.55 | 36803 | 54857
4 | 12:11.33 | 4:58.44 | 54858 | 77251
5 | 17:10.02 | 4:16.18 | 77252 | 96469
6 | 21:26.20 | 3:53.16 | 96470 | 113960
7 | 25:19.36 | 3:41.57 | 113961 | 130592
8 | 29:01.18 | 3:41.54 | 130593 | 147221
9 | 32:42.72 | 3:07.74 | 147222 | 161320
10 | 35:50.71 | 2:36.26 | 161321 | 173046
11 | 38:27.22 | 3:47.36 | 173047 | 190107
12 | 42:14.58 | 3:15.00 | 190108 | 204732
13 | 45:29.58 | 3:59.23 | 204733 | 222680
14 | 49:29.06 | 3:38.29 | 222681 | 239059
15 | 53:07.35 | 3:54.08 | 239060 | 256617
16 | 57:01.43 | 3:13.00 | 256618 | 271092
17 | 60:14.43 | 3:30.14 | 271093 | 286856
18 | 63:44.57 | 3:44.32 | 286857 | 303688
19 | 67:29.14 | 4:05.15 | 303689 | 322078
20 | 71:34.29 | 6:28.01 | 322079 | 351179
Характеристики диапазона извлечения и сообщения об ошибках
Выбранный диапазон
Имя файла G:\for tracker\Thomas Anders\Thomas Anders - 2011 - Hits & Raritaten (3CD)\CD1 - Thomas Anders 1980-1984\CDImage.wav
Пиковый уровень 99.5 %
Качество диапазона 100.0 %
CRC теста 81E95981
CRC копии 81E95981
Копирование... OK
Ошибок не произошло
AccurateRip: сводка
Трек 1 точность не определена (достоверность 1) [82CEA106], AccurateRip вернул [3FABADD5]
Трек 2 точность не определена (достоверность 1) [321844DC], AccurateRip вернул [396D1A56]
Трек 3 точность не определена (достоверность 1) [E26E61AF], AccurateRip вернул [F0851F73]
Трек 4 точность не определена (достоверность 1) [777D7DDD], AccurateRip вернул [FF81407D]
Трек 5 точность не определена (достоверность 1) [CEF36F82], AccurateRip вернул [B5A53157]
Трек 6 точность не определена (достоверность 1) [6E142ECF], AccurateRip вернул [4C109E7F]
Трек 7 точность не определена (достоверность 1) [FACAE024], AccurateRip вернул [CA5AD913]
Трек 8 точность не определена (достоверность 1) [8337C57E], AccurateRip вернул [655D61F9]
Трек 9 точность не определена (достоверность 1) [0FB30586], AccurateRip вернул [DBB66DDF]
Трек 10 точность не определена (достоверность 1) [13110B91], AccurateRip вернул [191F402A]
Трек 11 точность не определена (достоверность 1) [71A95B2B], AccurateRip вернул [AEF8E388]
Трек 12 точность не определена (достоверность 1) [86F88B6F], AccurateRip вернул [990B618C]
Трек 13 точность не определена (достоверность 1) [84C48766], AccurateRip вернул [C3293AB2]
Трек 14 точность не определена (достоверность 1) [C97A5771], AccurateRip вернул [9426B7A0]
Трек 15 точность не определена (достоверность 1) [90861485], AccurateRip вернул [36B13DCA]
Трек 16 точность не определена (достоверность 1) [158E7FA9], AccurateRip вернул [12482147]
Трек 17 точность не определена (достоверность 1) [6A816767], AccurateRip вернул [49DEE6CB]
Трек 18 точность не определена (достоверность 1) [3BAC212A], AccurateRip вернул [087345BC]
Трек 19 точность не определена (достоверность 1) [17BFFD56], AccurateRip вернул [D782A7F0]
Трек 20 точность не определена (достоверность 1) [2501BA72], AccurateRip вернул [CB4B85B5]
Ни один трек не прошёл проверки на точность
В вашей базе может быть иной вариант штамповки диска
Конец отчёта
Лог CD2
Exact Audio Copy V0.99 prebeta 3 from 28. July 2007
Отчёт EAC об извлечении, выполненном 6. января 2012, 19:23
Thomas Anders / Hits $ Raritaten
Дисковод: PIONEER DVD-RW DVR-112D Adapter: 1 ID: 0
Режим чтения : Достоверность
Использование точного потока : Да
Отключение кэша аудио : Да
Использование указателей C2 : Нет
Коррекция смещения при чтении : 48
Способность читать области Lead-in и Lead-out : Нет
Заполнение пропущенных сэмплов тишиной : Да
Удаление блоков с тишиной в начале и конце : Нет
При вычислениях CRC использовались нулевые сэмплы : Да
Интерфейс : Встроенный Win32-интерфейс для Win NT/2000
Выходной формат : Внутренние WAV-операции
Формат сэмплов : 44.100 Гц; 16 бит; стерео
TOC извлечённого CD
Трек | Старт | Длительность | Начальный сектор | Конечный сектор
---------------------------------------------------------------------
1 | 0:00.00 | 3:50.34 | 0 | 17283
2 | 3:50.34 | 3:43.18 | 17284 | 34026
3 | 7:33.52 | 3:31.07 | 34027 | 49858
4 | 11:04.59 | 3:48.05 | 49859 | 66963
5 | 14:52.64 | 3:42.00 | 66964 | 83613
6 | 18:34.64 | 3:50.24 | 83614 | 100887
7 | 22:25.13 | 3:39.22 | 100888 | 117334
8 | 26:04.35 | 3:17.52 | 117335 | 132161
9 | 29:22.12 | 4:13.31 | 132162 | 151167
10 | 33:35.43 | 4:18.37 | 151168 | 170554
11 | 37:54.05 | 3:58.61 | 170555 | 188465
12 | 41:52.66 | 3:38.45 | 188466 | 204860
13 | 45:31.36 | 3:41.21 | 204861 | 221456
14 | 49:12.57 | 3:59.40 | 221457 | 239421
15 | 53:12.22 | 3:25.72 | 239422 | 254868
16 | 56:38.19 | 3:42.20 | 254869 | 271538
17 | 60:20.39 | 3:32.15 | 271539 | 287453
18 | 63:52.54 | 3:27.71 | 287454 | 303049
19 | 67:20.50 | 3:30.17 | 303050 | 318816
20 | 70:50.67 | 3:19.11 | 318817 | 333752
Характеристики диапазона извлечения и сообщения об ошибках
Выбранный диапазон
Имя файла G:\for tracker\Thomas Anders\Thomas Anders - 2011 - Hits & Raritaten (3CD)\CD2 - Modern Talking 1984-2003\CDImage.wav
Пиковый уровень 99.9 %
Качество диапазона 99.9 %
CRC теста 84130527
CRC копии 84130527
Копирование... OK
Ошибок не произошло
AccurateRip: сводка
Трек 1 точность не определена (достоверность 1) [A05A3F78], AccurateRip вернул [FEAD8C56]
Трек 2 точность не определена (достоверность 1) [BEEB2DD7], AccurateRip вернул [270EC50C]
Трек 3 точность не определена (достоверность 1) [86E59176], AccurateRip вернул [D51EB2A4]
Трек 4 точность не определена (достоверность 1) [D0ECE1E0], AccurateRip вернул [C45B7443]
Трек 5 точность не определена (достоверность 1) [96C75389], AccurateRip вернул [DA0FD9B7]
Трек 6 точность не определена (достоверность 1) [3CA1DE31], AccurateRip вернул [5EE2E402]
Трек 7 точность не определена (достоверность 1) [65B16AC0], AccurateRip вернул [151EA43E]
Трек 8 точность не определена (достоверность 1) [698B455C], AccurateRip вернул [471F3F6D]
Трек 9 точность не определена (достоверность 1) [5B50AE66], AccurateRip вернул [DF4177BA]
Трек 10 точность не определена (достоверность 1) [C70C15E0], AccurateRip вернул [34F8E78E]
Трек 11 точность не определена (достоверность 1) [8FC7B7FD], AccurateRip вернул [4574493F]
Трек 12 точность не определена (достоверность 1) [38805111], AccurateRip вернул [C21E3A59]
Трек 13 точность не определена (достоверность 1) [8F944ABB], AccurateRip вернул [25822FA9]
Трек 14 точность не определена (достоверность 1) [AB5EE6DE], AccurateRip вернул [82E29E75]
Трек 15 точность не определена (достоверность 1) [DB5ED7F7], AccurateRip вернул [6875D884]
Трек 16 точность не определена (достоверность 1) [1F1C4064], AccurateRip вернул [6FF4C58E]
Трек 17 точность не определена (достоверность 1) [6D4460DB], AccurateRip вернул [8A624293]
Трек 18 точность не определена (достоверность 1) [5CEAD1CB], AccurateRip вернул [ADD8BA2E]
Трек 19 точность не определена (достоверность 1) [9D6FA4BE], AccurateRip вернул [2E968084]
Трек 20 точность не определена (достоверность 1) [C50CD85E], AccurateRip вернул [5E5CF3E6]
Ни один трек не прошёл проверки на точность
В вашей базе может быть иной вариант штамповки диска
Конец отчёта
Лог CD3
Exact Audio Copy V0.99 prebeta 3 from 28. July 2007
Отчёт EAC об извлечении, выполненном 6. января 2012, 19:45
Thomas Anders / Hits & Raritaten
Дисковод: PIONEER DVD-RW DVR-112D Adapter: 1 ID: 0
Режим чтения : Достоверность
Использование точного потока : Да
Отключение кэша аудио : Да
Использование указателей C2 : Нет
Коррекция смещения при чтении : 48
Способность читать области Lead-in и Lead-out : Нет
Заполнение пропущенных сэмплов тишиной : Да
Удаление блоков с тишиной в начале и конце : Нет
При вычислениях CRC использовались нулевые сэмплы : Да
Интерфейс : Встроенный Win32-интерфейс для Win NT/2000
Выходной формат : Внутренние WAV-операции
Формат сэмплов : 44.100 Гц; 16 бит; стерео
TOC извлечённого CD
Трек | Старт | Длительность | Начальный сектор | Конечный сектор
---------------------------------------------------------------------
1 | 0:00.00 | 3:53.51 | 0 | 17525
2 | 3:53.51 | 3:52.65 | 17526 | 34990
3 | 7:46.41 | 4:13.55 | 34991 | 54020
4 | 12:00.21 | 4:33.22 | 54021 | 74517
5 | 16:33.43 | 4:30.73 | 74518 | 94840
6 | 21:04.41 | 4:10.01 | 94841 | 113591
7 | 25:14.42 | 5:04.40 | 113592 | 136431
8 | 30:19.07 | 4:04.59 | 136432 | 154790
9 | 34:23.66 | 4:03.03 | 154791 | 173018
10 | 38:26.69 | 3:31.16 | 173019 | 188859
11 | 41:58.10 | 4:06.36 | 188860 | 207345
12 | 46:04.46 | 3:33.03 | 207346 | 223323
13 | 49:37.49 | 3:42.66 | 223324 | 240039
14 | 53:20.40 | 3:35.56 | 240040 | 256220
15 | 56:56.21 | 3:50.74 | 256221 | 273544
16 | 60:47.20 | 4:01.00 | 273545 | 291619
17 | 64:48.20 | 3:21.12 | 291620 | 306706
18 | 68:09.32 | 3:44.12 | 306707 | 323518
19 | 71:53.44 | 3:03.43 | 323519 | 337286
20 | 74:57.12 | 4:26.19 | 337287 | 357255
Характеристики диапазона извлечения и сообщения об ошибках
Выбранный диапазон
Имя файла G:\for tracker\Thomas Anders\Thomas Anders - 2011 - Hits & Raritaten (3CD)\CD3 - Thomas Anders 1989-2009\CDImage.wav
Пиковый уровень 99.9 %
Качество диапазона 100.0 %
CRC теста 740801CE
CRC копии 740801CE
Копирование... OK
Ошибок не произошло
AccurateRip: сводка
Трек 1 точность не определена (достоверность 1) [A1126860], AccurateRip вернул [EDB44869]
Трек 2 точность не определена (достоверность 1) [1B397BEF], AccurateRip вернул [96B6D0B2]
Трек 3 точность не определена (достоверность 1) [B35EA789], AccurateRip вернул [F41645B0]
Трек 4 точность не определена (достоверность 1) [A3112900], AccurateRip вернул [59E6064E]
Трек 5 точность не определена (достоверность 1) [916B25CA], AccurateRip вернул [B75A7B4E]
Трек 6 точность не определена (достоверность 1) [143F64F2], AccurateRip вернул [A6E0E288]
Трек 7 точность не определена (достоверность 1) [4EEE5320], AccurateRip вернул [A0AC7D1C]
Трек 8 точность не определена (достоверность 1) [9EDA44AD], AccurateRip вернул [F675C772]
Трек 9 точность не определена (достоверность 1) [8AF876D1], AccurateRip вернул [C1A69BE5]
Трек 10 точность не определена (достоверность 1) [B3AA9AD9], AccurateRip вернул [56E6AFA7]
Трек 11 точность не определена (достоверность 1) [99043E57], AccurateRip вернул [EE1667D3]
Трек 12 точность не определена (достоверность 1) [99FB952E], AccurateRip вернул [E91C62DD]
Трек 13 точность не определена (достоверность 1) [B55941C9], AccurateRip вернул [BA871E40]
Трек 14 точность не определена (достоверность 1) [387EE239], AccurateRip вернул [CAC35E5C]
Трек 15 точность не определена (достоверность 1) [6F9329E2], AccurateRip вернул [053829E4]
Трек 16 точность не определена (достоверность 1) [80002889], AccurateRip вернул [899F8627]
Трек 17 точность не определена (достоверность 1) [5D1D1BF7], AccurateRip вернул [37ECDB8A]
Трек 18 точность не определена (достоверность 1) [02F98B5C], AccurateRip вернул [A0DC0D81]
Трек 19 точность не определена (достоверность 1) [EBD32537], AccurateRip вернул [BC7DAC82]
Трек 20 точность не определена (достоверность 1) [672383AC], AccurateRip вернул [522F89D8]
Ни один трек не прошёл проверки на точность
В вашей базе может быть иной вариант штамповки диска
Конец отчёта
Доп. информация:
Рип фирменного 3CD издания из моей коллекции.
Всем спасибо за внимание к моим раздачам!!!
Download
Сайт не распространяет и не хранит электронные версии произведений, а лишь предоставляет доступ к создаваемому пользователями каталогу ссылок на торрент-файлы, которые содержат только списки хеш-сумм
Как скачивать? (для скачивания .torrent файлов необходима регистрация)
[Профиль]  [ЛС] 

vitaly_k

Стаж: 12 лет 1 месяц

Сообщений: 206

vitaly_k · 10-Янв-12 18:02 (спустя 1 день 1 час)

качаем и раздаем все дружною толпой неспеша размеренно)
[Профиль]  [ЛС] 

jd250872jd

Top Seed 03* 160r

Стаж: 11 лет 2 месяца

Сообщений: 985

jd250872jd · 10-Янв-12 18:05 (спустя 3 мин.)

я раздаю, раздаю... просто утром на работу ушел, а сейчас весь вечер раздаю...
что не успею - завтра точно докачаете....
[Профиль]  [ЛС] 

jd250872jd

Top Seed 03* 160r

Стаж: 11 лет 2 месяца

Сообщений: 985

jd250872jd · 12-Янв-12 05:04 (спустя 1 день 10 часов)

ну, вы, блин, даете...
долго, наверное, думали, прежде чем такое сказать посмешили...
[Профиль]  [ЛС] 

Johnny Raw

Стаж: 11 лет 1 месяц

Сообщений: 819


Johnny Raw · 12-Янв-12 13:16 (спустя 8 часов)

yarchelny116
Вы можете купить аналогичные диски и выложить так, как Вам нравится, а не молоть чушь.
jd250872jd
Искренне надеюсь, что после подобных бредовых обвинений у Вас не пропадет желание радовать нас новыми релизами, ибо благодаря Вам моя коллекция пополнилась многими редкими дисками, которые не всегда возможно купить даже при наличии необходимых финансов. Спасибо Вам большое!
[Профиль]  [ЛС] 

jd250872jd

Top Seed 03* 160r

Стаж: 11 лет 2 месяца

Сообщений: 985

jd250872jd · 12-Янв-12 17:07 (спустя 3 часа)

могу сказать одно - на все есть Модераторы и Администраторы - которые все и решают
а разного рода умников всегда было, есть и будет - и все равно они будут правы - как ты их не переубеждай - только зря тратить время на это и нервы (если они конечно есть
безусловно меньше от этого моих раздач не станет в будущем, а просто поговорить и ничего не делать - это мы умеем, в России живем же ;-), чему удивляться (это я на счет раздач)...
[Профиль]  [ЛС] 

Johnny Raw

Стаж: 11 лет 1 месяц

Сообщений: 819


Johnny Raw · 12-Янв-12 20:10 (спустя 3 часа, ред. 12-Янв-12 20:10)

yarchelny116 писал(а):
А чушь в большинстве случаев несут такие как Вы . Для которых "... что рок N ролл, что краковяк сидят и башляют не хрена..." А.В. Макаревич
В одном Вы правы - до рок-н-ролла мне действительно дела нет, ибо предпочитаю электронную музыку, хотя процитированного здесь Макаревича уважаю - поэт он замечательный.
jd250872jd
Скажите, пожалуйста, Вы не в курсе, треки на CD1 (Thomas Anders 1980-84) впервые издаются на компакт-диске? Дело в том, что в начале 2000-х годов я купил у одного немецкого коллекционера сборник ранних песен Томаса Андерса (трек-лист примерно похож, да и диск этот есть на трекере), но у меня такое ощущение, что там представлены оцифровки винила. Хотя в то время я был и этому рад.
[Профиль]  [ЛС] 

jd250872jd

Top Seed 03* 160r

Стаж: 11 лет 2 месяца

Сообщений: 985

jd250872jd · 12-Янв-12 20:47 (спустя 36 мин.)

Johnny Raw
К сожалению, я не в курсе...
Я встречал на аукционах раннего Андерса - но в основном это были винилы или бутлеги...
Вот, собственно, и вся информация, которой я владею...
[Профиль]  [ЛС] 

Johnny Raw

Стаж: 11 лет 1 месяц

Сообщений: 819


Johnny Raw · 13-Янв-12 21:21 (спустя 1 день)

jd250872jd
Спасибо, значит, получается, на представленном здесь диске впервые издали раннего Андерса.
[Профиль]  [ЛС] 

discofan74

Top Seed 03* 160r

Стаж: 10 лет 4 месяца

Сообщений: 2889

discofan74 · 14-Янв-12 16:21 (спустя 19 часов)

jd250872jd
Спасибо за интересные CD!
Johnny Raw писал(а):
треки на CD1 (Thomas Anders 1980-84) впервые издаются на компакт-диске?
Неофиц. релиз у японцев был:
[Профиль]  [ЛС] 

omegalord

Стаж: 12 лет 10 месяцев

Сообщений: 1033

omegalord · 17-Янв-12 08:51 (спустя 2 дня 16 часов, ред. 17-Янв-12 08:51)

jd250872jd
Спасибо за раздачу!
yarchelny116
А в чем, собственно, (на ваш взгляд) состоит проблема с лог-файлами раздачи? Можете внятно объяснить без ругани и лишних эмоций?
[Профиль]  [ЛС] 

jd250872jd

Top Seed 03* 160r

Стаж: 11 лет 2 месяца

Сообщений: 985

jd250872jd · 05-Май-12 20:31 (спустя 3 месяца 19 дней)

пожалуйста...
а альбом TWO вы найдете здесь: https://rutracker.org/forum/viewtopic.php?t=3618418
[Профиль]  [ЛС] 

silverboy09

Стаж: 8 лет 8 месяцев

Сообщений: 71

silverboy09 · 26-Май-12 17:52 (спустя 20 дней)

jd250872jd писал(а):
пожалуйста...
а альбом TWO вы найдете здесь: https://rutracker.org/forum/viewtopic.php?t=3618418
Большое спасибо за подсказку!
[Профиль]  [ЛС] 

AuxDeux

Стаж: 10 лет 3 месяца

Сообщений: 519


AuxDeux · 15-Авг-12 11:21 (спустя 2 месяца 19 дней)

спасибо!
наконец-то ранний Томас в студийном качестве!
[Профиль]  [ЛС] 

pinkfloyd8079

Стаж: 9 лет 7 месяцев

Сообщений: 21

pinkfloyd8079 · 25-Авг-12 21:16 (спустя 10 дней)

Отсутсвует 18. Mrs. Robota - Modern Talking на 2 CD.
[Профиль]  [ЛС] 

jd250872jd

Top Seed 03* 160r

Стаж: 11 лет 2 месяца

Сообщений: 985

jd250872jd · 26-Авг-12 05:14 (спустя 7 часов)

все на месте - лучше ищите
[Профиль]  [ЛС] 

razapan01974

Стаж: 9 лет 5 месяцев

Сообщений: 154

razapan01974 · 02-Сен-12 19:41 (спустя 7 дней, ред. 02-Сен-12 19:41)

Спасибо!А чем второй диск Томаса(CD2 - Modern Talking 1984-2003), отличается от оригинальных таких же песен Modern Talking???
[Профиль]  [ЛС] 

day_owl

Top User 06

Стаж: 11 лет 3 месяца

Сообщений: 1351

day_owl · 17-Окт-12 18:09 (спустя 1 месяц 14 дней, ред. 17-Окт-12 18:09)

А!!!! Это просто феноменально :)! В свое время у меня были хреновые оцифровки синглов Берни Вайдунга , а тут такой подарок - даже старым записям типа JUDY сделан качественный перенос в цифру!
Релизеру - нобелевскую премию рутрекера :):):)!
Старые записи Вайдунга - это нечто! Чего стоит Was Macht Das Schon - она же Pick Up The Phone в исполнении F.R.David-а https://rutracker.org/forum/viewtopic.php?t=1025774
- лично с моей точки зрения у Томаса Андерса - интереснее..
А модерн токинговский Lucky Guy , пре-релиз которой в этом альбоме называется Es Geht Mir Gut Heut Nacht , и в котором уже прорисовывались характерные черты принципа аранжировки песни, который придумали Болен и Родригес...
Вобщем, всем интрересующимся - рекомендуется...!
[Профиль]  [ЛС] 

silverboy09

Стаж: 8 лет 8 месяцев

Сообщений: 71

silverboy09 · 28-Окт-12 10:56 (спустя 10 дней)

На cd 1 трек 18(und wenn die Sonne schlafen geht)есть?
[Профиль]  [ЛС] 

day_owl

Top User 06

Стаж: 11 лет 3 месяца

Сообщений: 1351

day_owl · 28-Окт-12 20:30 (спустя 9 часов)

silverboy09 писал(а):
55999927На cd 1 трек 18(und wenn die Sonne schlafen geht)есть?
Да, есть - это релизер невнимательно треклист прописал в шапке темы - в раздаче этот трек есть
[Профиль]  [ЛС] 

resstman

Стаж: 5 лет 6 месяцев

Сообщений: 152


resstman · 13-Авг-15 22:53 (спустя 2 года 9 месяцев)

pinkfloyd8079 писал(а):
54870411Отсутсвует 18. Mrs. Robota - Modern Talking на 2 CD.
Враньё! Всё есть. Вот конверташка с этой раздачи, все треки присутствуют: https://rutracker.org/forum/viewtopic.php?t=5058721
[Профиль]  [ЛС] 
 
Ответить
Loading...
Error