Осторожно с ангелом / Cuidado con el Angel / Серии: 1-24 (24) (Виктор Родригез) [2008, Мексика, теленовелла, DVDRip]

Страницы:  1
Ответить
Автор
Сообщение

AnastasiaM

Стаж: 11 лет 2 месяца

Сообщений: 411

AnastasiaM · 08-Сен-11 19:08 (7 лет 11 месяцев назад, ред. 14-Сен-11 23:49)

Осторожно с ангелом / Cuidado con el Angel
Год выпуска: 2008
Страна: Мексика
Производство: Televisa
Жанр: теленовелла
Серии (количество): 1-24 (24)
Продолжительность: ~ 34:00:00
Перевод: любительский одноголосый закадровый (Amway)
Субтитры: отсутствуют
Режиссёр: Виктор Родригез
В ролях: Майте Перрони, Уильям Леви, Элена Рохо, Ана Патрисия Рохо, Эвита Муньоз Чачита и др.
Описание: Мария де Хесус, которую все знают под прозвищем Маричуй, молодая и веселая девушка. Она выросла в приюте, куда ее принес священник падре Ансельмо. Мать Маричуй, думая что умирает, отдала свою новорожденную дочку ему, чтобы он позаботился о ней.
В 14 лет Маричуй убегает из приюта. Она живет уличной жизнью и однажды становится жертвой пьяницы, который насилует ее, после чего ее начинают преследовать кошмары и страх перед мужчинами.
Маричуй находит старая прачка Канделярия и становится для нее матерью.
Однажды Маричуй оказывается в полиции, где знакомится с Хуан Мигелем, молодым врачем-психоаналитиком. Хуан Мигель уговаривает судью Виларде отпустить девушку. Это первая встреча Маричуй и Виларде, который не знает, что Маричуй его дочь.
Через некоторое время Маричуй опять попадает в тюрьму и Хуан Мигель опять готов помочь девушке.
Доп. информация: Данный релиз - официальная краткая версия сериала. Каждый оригинальный диск, с которого делался рип, разрезан на серии по 30-35 минут, сюжетная линия полностью сохранена.
За перевод СПАСИБО: galya1981 и sonatas2009
Работа с видео: Tonika
Озвучил: Amway

Сэмпл: http://multi-up.com/554056
Ссылка на предыдущие и альтернативные раздачи: https://rutracker.org/forum/tracker.php?f%5B%5D=1940&f%5B%5D=&nm=Cuidado%20con%20el%20Angel
Качество: DVDRip
Формат: AVI
Видео кодек: DivX
Аудио кодек: MP3
Видео: 640*480 (1.33), 29.970 fps, DivX Codec 4.x, ~1996 kbps, 0.22 bit/pixel
Аудио 1: 48 kHz, MPEG Layer 3, 2 ch, ~128 kbps (рус)
Аудио 2: 48 kHz, MPEG Layer 3, 2 ch, ~128 kbps (esp)
MI
Format : AVI
Format/Info : Audio Video Interleave
File size : 546 MiB
Duration : 33mn 34s
Overall bit rate : 2 275 Kbps
Writing application : VirtualDubModRus 1.5.10.2 (build 2540/release)
Writing library : VirtualDubMod build 2540/release
Video
ID : 0
Format : MPEG-4 Visual
Format settings, BVOP : 1
Format settings, QPel : No
Format settings, GMC : No warppoints
Format settings, Matrix : Default (H.263)
Muxing mode : Packed bitstream
Codec ID : DX50
Codec ID/Hint : DivX 5
Duration : 33mn 34s
Bit rate : 2 002 Kbps
Width : 640 pixels
Height : 480 pixels
Display aspect ratio : 4:3
Frame rate : 29.970 fps
Color space : YUV
Chroma subsampling : 4:2:0
Bit depth : 8 bits
Scan type : Progressive
Compression mode : Lossy
Bits/(Pixel*Frame) : 0.217
Stream size : 481 MiB (88%)
Writing library : DivX 6.8.5 (UTC 2009-08-20)
Audio #1
ID : 1
Format : MPEG Audio
Format version : Version 1
Format profile : Layer 3
Mode : Joint stereo
Mode extension : MS Stereo
Codec ID : 55
Codec ID/Hint : MP3
Duration : 33mn 34s
Bit rate mode : Constant
Bit rate : 128 Kbps
Channel(s) : 2 channels
Sampling rate : 48.0 KHz
Compression mode : Lossy
Stream size : 30.7 MiB (6%)
Alignment : Split accross interleaves
Interleave, duration : 33 ms (1.00 video frame)
Interleave, preload duration : 500 ms
Audio #2
ID : 2
Format : MPEG Audio
Format version : Version 1
Format profile : Layer 3
Mode : Joint stereo
Mode extension : MS Stereo
Codec ID : 55
Codec ID/Hint : MP3
Duration : 33mn 34s
Bit rate mode : Constant
Bit rate : 128 Kbps
Channel(s) : 2 channels
Sampling rate : 48.0 KHz
Compression mode : Lossy
Stream size : 30.7 MiB (6%)
Alignment : Split accross interleaves
Interleave, duration : 33 ms (1.00 video frame)
Interleave, preload duration : 500 ms
Скриншоты
Download
Сайт не распространяет и не хранит электронные версии произведений, а лишь предоставляет доступ к создаваемому пользователями каталогу ссылок на торрент-файлы, которые содержат только списки хеш-сумм
Как скачивать? (для скачивания .torrent файлов необходима регистрация)
[Профиль]  [ЛС] 

Ekaterina2072

VIP (Заслуженный)

Стаж: 12 лет

Сообщений: 3193

Ekaterina2072 · 08-Сен-11 19:11 (спустя 3 мин.)

AnastasiaM
Amway
Спасибо!
Специально не смотрела с субтитрами, всё ждала озвучку. И вот дождалась
[Профиль]  [ЛС] 

EL_1991

Стаж: 9 лет 3 месяца

Сообщений: 201

EL_1991 · 12-Сен-11 23:50 (спустя 4 дня)

А полную версию озвучат?Очень бы хотелось!!!
[Профиль]  [ЛС] 

AnastasiaM

Стаж: 11 лет 2 месяца

Сообщений: 411

AnastasiaM · 17-Сен-11 21:22 (спустя 4 дня)

EL_1991 писал(а):
А полную версию озвучат?Очень бы хотелось!!!
Вряд ли. Её еще перевести надо. Подождем, когда покажут по какому-нибудь каналу.
[Профиль]  [ЛС] 

IvanS66

Стаж: 10 лет 11 месяцев

Сообщений: 3049


IvanS66 · 27-Сен-11 07:19 (спустя 9 дней)

AnastasiaM
каак говорил в асе, скорее Россия или ОРТ украдут идею и создадут русский сериал на такую же тему
[Профиль]  [ЛС] 

Milashka1983

Стаж: 9 лет 5 месяцев

Сообщений: 21


Milashka1983 · 12-Окт-11 09:53 (спустя 15 дней)

[Профиль]  [ЛС] 

eto-ile

Стаж: 10 лет 7 месяцев

Сообщений: 1590

eto-ile · 07-Май-19 22:19 (спустя 7 лет 6 месяцев)

Впервые натыкаюсь на такой унылый мини-сериал, ну очень затянуто. Даже боюсь представить полную версию)))
ГГ-ня - самая настоящая мартышка. На лицо она еще ничего, а вот ноги кривые и ходит, как мужик, вследствие чего ни одно платье на ней нормально не сидит. Не удивительно, что большую часть экранного времени она проходила в джинсах)))
ГГ, на мой вкус, слишком уж смазливый, да и его типажу как раз больше подходят джинсы, чем строгие костюмы)
[Профиль]  [ЛС] 
 
Ответить
Loading...
Error